#TITLE:Just Do It;
#SUBTITLE:;
#ARTIST:Niki;
#TITLETRANSLIT:;
#SUBTITLETRANSLIT:;
#ARTISTTRANSLIT:;
#CREDIT:;
#BANNER:;
#BACKGROUND:;
#LYRICSPATH:;
#CDTITLE:;
#MUSIC:Just Do It.mp3;
#MUSICLENGTH:92.551;
#OFFSET:-0.040;
#SAMPLESTART:21.145;
#SAMPLELENGTH:12.000;
#SELECTABLE:YES;
#BPMS:0.000=136.000;
#STOPS:;
#BGCHANGES:;
#FIRSTBEAT:8.000;

#LASTBEAT:208.000;

#SONGFILENAME:Songs/EXTRA/Just Do It/Just Do It.sm;

#HASMUSIC:1;

#HASBANNER:0;


//---------------dance-single - MANIAC----------------
#NOTES:
     dance-single:
     MANIAC:
     hard:
     9:
     0.591,0.702,0.130,0.108,0.551,361.000,12.000,10.000,0.000,0.000:  // measure 1
0000
0000
0000
0000
,  // measure 2
0000
0000
0000
0000
,  // measure 3
0001
0010
0100
1000
,  // measure 4
0010
0000
0010
0000
0010
0100
0010
0000
,  // measure 5
0100
0000
1000
0000
0001
0010
0000
0010
0001
0000
0000
1000
0000
0000
0100
0000
,  // measure 6
0100
0000
1000
0000
0001
0010
0000
0010
0001
0000
0000
1000
0000
0000
0100
0000
,  // measure 7
0100
0000
1000
0000
0001
0010
0000
0010
0001
0000
0000
1000
0000
0000
0100
0000
,  // measure 8
1000
0000
0100
0000
0001
0000
0100
0000
0000
0000
1000
0100
1000
0000
0000
0000
,  // measure 9
0100
0000
0001
0000
0010
0100
0000
0100
0010
0000
0000
0001
0000
0000
1000
0000
,  // measure 10
0100
0000
1000
0000
0010
0100
0000
0100
0010
0000
0000
1000
0000
0000
0001
0000
,  // measure 11
0100
0000
0001
0000
0010
0100
0000
0100
0010
0000
0000
0001
0000
0000
1000
0000
,  // measure 12
0010
0010
0100
0100
0000
0000
0010
0000
,  // measure 13
0000
0000
1000
0001
0000
0000
0001
0010
0000
0000
0010
0001
0000
0000
0001
0100
,  // measure 14
0000
0000
0100
0010
0000
0000
0010
0001
0000
0000
0001
1000
0000
0000
1000
0000
,  // measure 15
0001
0000
0010
0100
0000
0000
0100
0001
0000
0000
0100
1000
0000
0000
0010
1000
,  // measure 16
0000
1000
0001
0000
0102
0000
1003
0000
,  // measure 17
0000
0000
0100
0010
0000
0000
0010
1000
0000
0000
1000
0001
0000
0000
1000
0100
,  // measure 18
0000
0000
0100
0010
0000
0000
0010
0001
0000
0000
0001
1000
0000
0000
0001
0000
,  // measure 19
1001
0000
0101
0000
1100
0000
0000
0100
,  // measure 20
0101
1100
0220
0330
,  // measure 21
0100
0000
1000
0100
1000
0000
0100
0010
0100
0000
0010
0001
0010
0000
0001
0010
,  // measure 22
0001
0000
0010
0100
0010
0000
0100
1000
0100
0000
1000
0001
1000
0000
0001
1000
,  // measure 23
0001
0000
1000
0010
1000
0000
0010
0100
0010
0000
0100
0001
0100
0000
0000
0000
,  // measure 24
0200
0320
0032
1003
,  // measure 25
0100
0000
1000
0100
1000
0000
0100
0010
0100
0000
0010
0001
0010
0000
0001
0010
,  // measure 26
0001
0000
0010
0100
0010
0000
0100
1000
0100
0000
1000
0001
1000
0000
0001
1000
,  // measure 27
0001
0000
1000
0010
1000
0000
0010
0100
0010
0000
0100
0001
0100
0000
0000
0000
,  // measure 28
0200
0320
0032
1003
,  // measure 29
1000
0100
0010
0100
0000
0100
1000
0010
,  // measure 30
0001
0010
0000
0010
1000
0100
1000
0010
,  // measure 31
0000
0010
0100
0001
0100
1000
0000
1000
,  // measure 32
0100
0000
0010
0000
0010
0000
0000
0000
0010
0000
0000
0001
0000
0000
1000
0000
,  // measure 33
0000
1000
0100
0010
0001
0010
0000
0010
,  // measure 34
0100
1000
0010
0001
0000
0001
0010
1000
,  // measure 35
0000
1000
0100
0001
0010
1000
0000
1000
,  // measure 36
0010
0001
0100
1000
0000
1000
1000
0000
,  // measure 37
0000
0000
1000
0000
0001
0010
0000
0000
0100
0000
0000
0010
0000
0000
0100
0000
,  // measure 38
0000
0000
1000
0000
0001
1000
0000
0000
0010
0000
0000
0001
0000
0000
1000
0000
,  // measure 39
0000
0000
0100
0000
0010
0001
0000
0000
0001
0000
0000
0001
0000
0000
0001
0000
,  // measure 40
0000
0000
0100
0000
0010
1000
0000
0000
1000
0000
0000
1000
0000
0000
1000
0000
,  // measure 41
0000
0000
1000
0000
0001
0010
0000
0000
0100
0000
0000
0010
0000
0000
0100
0000
,  // measure 42
0000
0000
1000
0000
0001
1000
0000
0000
0010
0000
0000
0001
0000
0000
1000
0000
,  // measure 43
0000
0000
0100
0000
0010
0001
0000
0000
0001
0000
0000
0001
0000
0000
0001
0000
,  // measure 44
0010
1000
0010
1000
0010
1000
0001
1000
0100
1000
0100
1000
0100
0000
0000
0000
,  // measure 45
1010
0000
1000
0100
0000
0000
0100
1000
0000
0000
1000
0010
0000
0000
0010
0001
,  // measure 46
0000
0000
0001
0100
0000
0000
0100
0001
0000
0000
0100
1000
0000
0000
0001
0000
,  // measure 47
0001
0000
1000
0100
0000
0000
0010
0001
0000
0000
0100
0001
0000
0000
0001
1000
,  // measure 48
0000
1000
1001
0000
0201
0000
0301
0000
,  // measure 49
0000
0000
1000
0001
0000
0000
0100
0001
0000
0000
1000
0001
0000
0000
0001
0100
,  // measure 50
0000
0000
0010
0100
0000
0000
0001
0100
0000
0000
1000
0100
0000
0000
0100
0000
,  // measure 51
0010
0000
0001
1000
0000
0000
0100
0010
0000
0000
1000
0001
0000
0000
0100
0010
,  // measure 52
0000
0010
1010
0000
0001
0010
0100
1000
,  // measure 53
0110
0000
0000
0000
;

//---------------dance-single - ANOTHER----------------
#NOTES:
     dance-single:
     ANOTHER:
     medium:
     6:
     0.386,0.393,0.076,0.000,0.173,243.000,7.000,0.000,0.000,0.000:  // measure 1
0000
0000
0000
0000
,  // measure 2
0000
0000
0000
0000
,  // measure 3
1000
0000
0001
0000
,  // measure 4
0000
0000
0000
0000
0000
0010
1000
0000
,  // measure 5
0000
0000
0001
0000
0000
1000
0000
0000
0010
0000
0000
0100
0000
0000
0001
0000
,  // measure 6
0000
0000
1000
0000
0000
0000
0100
0000
0010
0000
0000
0100
0000
0000
1000
0000
,  // measure 7
0000
0000
0001
0000
0000
0100
0000
0000
0010
0000
0000
1000
0000
0000
0001
0000
,  // measure 8
0100
0010
1000
0001
0000
0000
0000
0000
,  // measure 9
0000
0000
0100
0000
0000
0000
1000
0000
0010
0000
0000
0100
0000
0000
0001
0000
,  // measure 10
0000
0000
1000
0000
0000
0100
0000
0000
0010
0000
0000
0001
0000
0000
1000
0000
,  // measure 11
0000
0000
0100
0000
0000
0000
0100
0000
0010
0000
0000
0001
0000
0000
1000
0000
,  // measure 12
0100
0010
0001
1000
0000
0100
0001
0000
,  // measure 13
1000
0001
1000
0100
,  // measure 14
0010
0000
0001
0000
1000
0010
1000
0000
,  // measure 15
0001
0000
0100
0000
0001
0100
0001
0000
,  // measure 16
1000
0100
0110
0110
,  // measure 17
1000
0000
0001
0000
0100
0010
0100
0000
,  // measure 18
0001
0000
1000
0000
0100
0010
0100
0000
,  // measure 19
0010
1000
0001
0000
0001
0000
0000
0100
,  // measure 20
1000
0010
1000
0000
1001
0000
1001
0000
,  // measure 21
0100
0000
0010
0000
0001
1000
0100
1000
,  // measure 22
0100
0000
0010
0000
0001
1000
0100
0010
,  // measure 23
0001
0000
1000
0000
0100
0001
0010
0100
,  // measure 24
1000
0000
0000
0000
1000
0000
0000
0000
1000
0000
0000
0010
0100
0000
0000
0000
,  // measure 25
0001
1000
0100
0010
,  // measure 26
0001
1000
0010
0100
,  // measure 27
0001
1000
0100
0010
,  // measure 28
0100
1000
0100
0010
0000
0000
0001
0000
,  // measure 29
1000
0000
0000
0000
0100
0000
0000
0000
0010
0000
0000
0001
0000
0000
1000
0000
,  // measure 30
0000
0000
0100
0000
0010
0000
0000
0000
0001
0000
0000
1000
0000
0000
0100
0000
,  // measure 31
0000
0000
0000
0000
0010
0000
0000
0000
0001
0000
0000
1000
0000
0000
0010
0000
,  // measure 32
0000
0000
0100
0000
1000
0000
0000
0000
0010
0000
0000
1000
0000
0000
0001
0000
,  // measure 33
0000
0000
0000
0100
0000
0000
0010
0000
1000
0000
0000
0001
0000
0000
0010
0000
,  // measure 34
0000
0000
0100
0000
0000
0000
1000
0000
0001
0000
0000
0010
0000
0000
0001
0000
,  // measure 35
0000
0000
0010
0000
0001
0000
0000
0000
1000
0000
0000
0010
0000
0000
0100
0000
,  // measure 36
0000
0000
0001
0000
0000
1000
0000
0000
0100
0000
0000
0000
0010
0000
0001
0000
,  // measure 37
0000
1000
0010
0000
0100
0000
0001
1000
,  // measure 38
0000
0000
0001
0000
0000
0010
0000
0000
0100
0000
0000
1000
0000
0000
0010
0000
,  // measure 39
0000
0000
0100
0000
0000
1000
0000
0000
0001
0000
0000
0010
0000
0000
0001
0000
,  // measure 40
0000
0000
0001
0000
0000
0001
0000
0000
1000
0000
0000
1000
0000
0000
1000
0000
,  // measure 41
0000
0000
0010
0000
0000
0100
0000
0000
0001
0000
0000
0000
1000
0000
0100
0000
,  // measure 42
0000
0000
1000
0000
0000
0000
0001
0000
0010
0000
0000
0100
0000
0000
1000
0000
,  // measure 43
0000
0000
0001
0000
0000
0100
0000
0000
0001
0000
0000
0001
0000
0000
0001
0000
,  // measure 44
0000
0010
0000
0000
0001
0000
0000
0000
0000
1000
0000
0001
1000
0000
0001
0000
,  // measure 45
1000
0001
1000
0100
,  // measure 46
0010
0000
0001
0000
1000
0010
1000
0000
,  // measure 47
0001
0000
0100
0000
0001
0100
0001
0000
,  // measure 48
1000
0100
0110
0110
,  // measure 49
1000
0000
0001
0000
0100
0010
0100
0000
,  // measure 50
0001
0000
1000
0000
0100
0010
0100
0000
,  // measure 51
0010
1000
0001
0000
0001
0000
0000
0100
,  // measure 52
1000
0010
1000
0000
1001
0010
0100
0010
,  // measure 53
0100
0000
0000
0000
;

//---------------dance-single - BASIC----------------
#NOTES:
     dance-single:
     BASIC:
     easy:
     4:
     0.304,0.393,0.022,0.000,0.000,195.000,2.000,0.000,0.000,0.000:  // measure 1
0000
0000
0000
0000
,  // measure 2
0000
0000
0000
0000
,  // measure 3
0010
0000
0000
0000
,  // measure 4
0000
0000
0000
0000
0000
0001
0100
0000
,  // measure 5
0001
1000
0100
0000
,  // measure 6
0001
1000
0100
1000
,  // measure 7
0001
1000
0100
0000
,  // measure 8
0001
0000
1000
0000
0000
0001
1000
0000
,  // measure 9
0100
0010
0100
0000
,  // measure 10
1000
0001
0100
0010
,  // measure 11
0100
0100
0001
0001
,  // measure 12
1000
0100
1000
0000
0000
0000
0100
0000
,  // measure 13
0010
0001
1000
0100
,  // measure 14
1000
0010
1000
0000
0001
0010
0001
0000
,  // measure 15
1000
0001
1000
0100
,  // measure 16
0001
0001
1001
1001
,  // measure 17
0100
0010
0001
0000
,  // measure 18
0100
0010
1000
0000
,  // measure 19
0100
0000
0010
0000
0100
0000
0000
0001
,  // measure 20
1000
0000
0100
0000
0010
0010
0100
0000
,  // measure 21
0001
1000
0100
0100
,  // measure 22
0001
1000
0100
0100
,  // measure 23
0001
1000
0100
0100
,  // measure 24
1000
0001
1000
0000
0010
0000
0010
0000
,  // measure 25
0100
0001
0010
0010
,  // measure 26
0100
0001
0010
0010
,  // measure 27
0001
1000
0010
0100
,  // measure 28
1000
0000
0010
0000
0000
1000
0100
0000
,  // measure 29
1000
0010
0100
0001
,  // measure 30
0000
0100
1000
0000
0010
0000
0010
0000
,  // measure 31
0000
0100
0010
0000
0001
0000
0001
0000
,  // measure 32
0000
0100
0010
0000
1000
0000
1000
0000
,  // measure 33
0000
0010
0100
0000
0001
0000
0001
0000
,  // measure 34
0000
0010
0100
0000
1000
0000
1000
0000
,  // measure 35
0000
1000
0001
0000
0000
0001
1000
0000
,  // measure 36
0000
0001
1000
0000
0000
1000
0001
0000
,  // measure 37
0010
0100
1000
0000
,  // measure 38
0010
0001
0100
0000
,  // measure 39
0010
1000
0100
0100
,  // measure 40
0010
0001
0100
0100
,  // measure 41
0010
1000
0100
0000
,  // measure 42
0010
0001
0100
0000
,  // measure 43
0001
0000
0000
0000
1000
0000
0000
0001
,  // measure 44
1000
0000
0000
0001
1000
0000
0000
0000
,  // measure 45
0001
1000
0100
0010
,  // measure 46
0001
0001
0010
0100
,  // measure 47
1000
1000
0100
0010
,  // measure 48
0001
0100
1000
0010
,  // measure 49
0001
0100
1000
0010
,  // measure 50
1000
0000
0010
0000
1000
0010
1000
0000
,  // measure 51
0001
0010
0001
0000
1000
0010
1000
0000
,  // measure 52
0001
0010
0001
0000
1000
0010
1000
0010
,  // measure 53
1000
0000
0000
0000
;
